Золотые яйца / Huevos de oro (1993) BDRip-AVC от ExKinoRay


Статистика раздачи
Размер: 745.51 МБ | Добавлен: 27 окт 2019, 19:02 | Скачали: 2
Сидеров: 3  [0 байт/сек]    Личеров: 10  [0 байт/сек]

Сообщение K15 » 27 окт 2019, 19:02

Информация о фильме
Название: Золотые яйца
Оригинальное название: Huevos de oro / Golden Balls
Год выхода: 1993
Жанр: Драма, комедия
Режиссер: Хосе Хуан Бигас Луна
В ролях: Хавьер Бардем, Бенисио Дель Торо, Франческо Доминедо, Мария де Медейруш, Марибель Верду, Элиза Товати, Алессандро Гассманн, Франциско Казарес, Альберт Видал, Анхель де Андрес Лопес, Алисия Моро, Мария Мартин, Исмаэль 'Ист' Карло

О фильме: Бенито Гонсалес, эксцентричный строитель из города Мелилья. У него есть мечта - построить самое высокое здание в городе. Он жесток, обидчив и очень тщеславен. Девиз его жизни — если у меня два яйца, то почему не может быть двух машин «Порше», двух золотых «Ролексов» и двух умопомрачительных женщин. Никто не может стоять у него на пути, ничто не помешает его планам. Он добьется всего и неважно как. Но что дальше?..



Страна: Испания, Италия, Франция
Студия: Antena 3 Televisión, Filmauro Distribuzione, Hugo Films S.A.
Продолжительность: 01:28:47
Перевод: Профессиональный двухголосый | Ульпаней Эльром

Файл
Формат: MKV
Качество: BDRip-AVC
Видео: MPEG-4 AVC, 792x336, - 1048 Кбит/с
Аудио: AAC-HE, 2 ch, - 76 Кбит/с
Субтитры: Нет


Общее
Уникальный идентификатор : 51602809999493002936102755231689168870 (0x26D256F687C61FB734C61E03238557E6)
Полное имя : D:MOVIESGolden.Balls.1993.BDRip-AVC.ExKinoRay.mkv
Формат : Matroska
Версия формата : Version 4 / Version 2
Размер файла : 746 Мбайт
Продолжительность : 1 ч. 32 м.
Общий поток : 1126 Кбит/сек
Дата кодирования : UTC 2019-10-27 15:31:55
Программа кодирования : mkvmerge v35.0.0 ('All The Love In The World') 64-bit
Библиотека кодирования : libebml v1.3.9 + libmatroska v1.5.2
Видео
Идентификатор : 1
Формат : AVC
Формат/Информация : Advanced Video Codec
Профиль формата : High@L4.1
Параметр CABAC формата : Да
Параметр RefFrames формата : 12 кадров
Идентификатор кодека : V_MPEG4/ISO/AVC
Продолжительность : 1 ч. 32 м.
Битрейт : 1048 Кбит/сек
Ширина : 792 пикселя
Высота : 336 пикселей
Соотношение сторон : 2,35:1
Режим частоты кадров : Постоянный
Частота кадров : 24,000 кадра/сек
Цветовое пространство : YUV
Субдискретизация насыщенности : 4:2:0
Битовая глубина : 8 бит
Тип развёртки : Прогрессивная
Бит/(Пиксели*Кадры) : 0.164
Размер потока : 694 Мбайт (93%)
Библиотека кодирования : x264 core 152 r2851kMod ba24899
Настройки программы : cabac=1 / ref=12 / deblock=1:-3:-2 / analyse=0x3:0x133 / me=umh / subme=10 / psy=1 / fade_compensate=0.00 / psy_rd=1.00:0.14 / mixed_ref=1 / me_range=32 / chroma_me=1 / trellis=2 / 8x8dct=1 / cqm=0 / deadzone=21,11 / fast_pskip=0 / chroma_qp_offset=-3 / threads=6 / lookahead_threads=1 / sliced_threads=0 / nr=0 / decimate=0 / interlaced=0 / bluray_compat=0 / constrained_intra=0 / bframes=12 / b_pyramid=2 / b_adapt=2 / b_bias=0 / direct=3 / weightb=1 / open_gop=0 / weightp=2 / keyint=240 / keyint_min=23 / scenecut=40 / intra_refresh=0 / rc_lookahead=40 / rc=2pass / mbtree=1 / bitrate=1048 / ratetol=1.0 / qcomp=0.60 / qpmin=0 / qpmax=69 / qpstep=4 / cplxblur=20.0 / qblur=0.5 / ip_ratio=1.40 / aq=3:1.00
Default : Да
Forced : Нет
Аудио
Идентификатор : 2
Формат : AAC
Формат/Информация : Advanced Audio Codec
Профиль формата : HE-AAC / LC
Идентификатор кодека : A_AAC
Продолжительность : 1 ч. 32 м.
Битрейт : 76,0 Кбит/сек
Каналы : 2 канала
Расположение каналов : Front: L R
Частота : 48,0 КГц / 24,0 КГц
Частота кадров : 23,438 кадра/сек (1024 SPF)
Метод сжатия : С потерями
Задержка видео : 31 мс.
Размер потока : 50,3 Мбайт (7%)
Язык : Russian
Default : Да
Forced : Нет
Меню
00:00:00.000 : en:Chapter 01
00:08:49.000 : en:Chapter 02
00:18:21.500 : en:Chapter 03
00:28:31.000 : en:Chapter 04
00:34:46.000 : en:Chapter 05
00:45:05.000 : en:Chapter 06
00:53:32.125 : en:Chapter 07
01:04:26.000 : en:Chapter 08
01:12:36.000 : en:Chapter 09
01:22:34.000 : en:Chapter 10
01:29:28.000 : en:Chapter 11

Правила, инструкции, FAQ!!!
Торрент  Добавлен [27 окт 2019, 19:02] Скачать торрент Магнет ссылка
Скачать торрент
[ Размер 15.63 КБ / Просмотров 8 ]

Статус
Проверен K15 (27 окт 2019, 19:02)
 
Размер  745.51 МБ
Приватный: Нет (DHT включён)
.torrent скачан  2
Как залить торрент? | Как скачать Torrent? | Как смотреть и слушать онлайн?  
K15
Супермодератор
 
Раздал: 3.51 ГБ
Скачал: 9.62 ГБ
Ратио: 0.365
Сообщения: 90
Стаж: 31 май 2019, 16:28


Вернуться в Комедии

Кто сейчас на конференции

Сейчас этот форум просматривают: нет зарегистрированных пользователей и гости: 0

скрипт для подписки на сайте