Приключения кота Леопольда (1975-1987) [1080p] BDRip


Статистика раздачи
Размер: 4.33 ГБ | Добавлен: 29 дек 2014, 23:47 | Скачали: 4
Сидеров: 123  [0 байт/сек]    Личеров: 6  [0 байт/сек]

Сообщение Гость » 29 дек 2014, 23:47

Страна: СССР
Оригинальное название: Приключения кота Леопольда
Русское название: Приключения кота Леопольда
Год выпуска: 1975-1987
Жанр: мультфильм

Описание фильма:
Популярный мультсериал о добродушном и разумном коте Леопольде, который из фильма в фильм призывает шкодливых мышат "жить дружно", а те искренне просят прощения, но к следующей серии благополучно забывают об этом и с удовольствием продолжают проказничать.

Содержание:
«Месть кота Леопольда» (1975 г.)
«Леопольд и золотая рыбка» (1975 г.)
«Клад кота Леопольда» (1981 г.)
«Телевизор кота Леопольда» (1981 г.)
«День рождения Леопольда» (1982 г.)
«Прогулка кота Леопольда» (1982 г.)
«Лето кота Леопольда» (1983 г.)
«Кот Леопольд во сне и наяву» (1984 г.)
«Поликлиника кота Леопольда» (1986 г.)
«Автомобиль кота Леопольда» (1987 г.)

Режиссер: Анатолий Резников
Роли озвучивали: Александр Калягин, Геннадий Хазанов, Андрей Миронов
Рейтинг:
Продолжительность: 01:35:16
Перевод: Не требуется
Субтитры: отсутствуют
Качество видео: BDRip
Формат: MKV
Видео: 1424x1080, MPEG-4 AVC, 25 fps, 6 Mbps
Аудио: AC3, 48 kHz, 6 ch, 448 kbps
Код:
Код: Выделить всё
Общее
Уникальный идентификатор         : 191644101257411809410447769351475556382 (0x902D4FB32BC85C9CA7BBDC0A90C9F01E)
Полное имя                       : C:\Users\Admin\Downloads\Приключения кота Леопольда (1975-1987) 1080p BDRip\09 Поликлиника кота Леопольда (1986) 1080p BDRip.mkv
Формат                           : Matroska
Размер файла                     : 426 Мбайт
Продолжительность                : 9 м. 38 с.
Общий поток                      : 6176 Кбит/сек
Дата кодирования                 : UTC 2011-05-29 10:19:52
Программа кодирования            : mkvmerge v3.4.0 ('Rapunzel') сборка от May 15 2010 09:38:20
Библиотека кодирования           : libebml v0.8.0 + libmatroska v0.9.0

Видео
Идентификатор                    : 1
Формат                           : AVC
Формат/Информация                : Advanced Video Codec
Профиль формата                  :
Параметр CABAC формата           : Да
Параметр ReFrames формата        : 4 кадры
Идентификатор кодека             : V_MPEG4/ISO/AVC
Продолжительность                : 9 м. 38 с.
Вид битрейта                     : Переменный
Битрейт                          : 5605 Кбит/сек
Максимальный битрейт             : 40,0 Мбит/сек
Ширина                           : 1424 пикс.
Высота                           : 1080 пикс.
Соотношение сторон               : 4:3
Частота кадров                   : 25,000 кадр/сек
Цветовое пространство            : YUV
Подвыборка цветности             : 4:2:0
Битовая глубина                  : 8 бит
Тип развёртки                    : Прогрессивная
Бит/(Пиксели*Кадры)              : 0.146
Размер потока                    : 387 Мбайт (91%)
Язык                             : Russian

Аудио
Идентификатор                    : 2
Формат                           : AC-3
Формат/Информация                : Audio Coding 3
Расширение режима                : CM (complete main)
Идентификатор кодека             : A_AC3
Продолжительность                : 9 м. 38 с.
Вид битрейта                     : Постоянный
Битрейт                          : 448 Кбит/сек
Канал(ы)                         : 6 канала(ов)
Расположение каналов             : Front: L C R, Side: L R, LFE
Частота                          : 48,0 КГц
Битовая глубина                  : 16 бит
Метод сжатия                     : С потерями
Размер потока                    : 30,9 Мбайт (7%)
Язык                             : Russian
Скриншоты:


Правила, инструкции, FAQ!!!
Торрент  Добавлен [29 дек 2014, 23:47] Скачать торрент Магнет ссылка
Скачать торрент
[ Размер 23.42 КБ / Просмотров 31 ]

Статус
Проверен 
 
Размер  4.33 ГБ
Приватный: Нет (DHT включён)
.torrent скачан  4
Как залить торрент? | Как скачать Torrent? | Как смотреть и слушать онлайн?  
Гость
 


Вернуться в Отечественные мультфильмы (HD Video)

Кто сейчас на конференции

Сейчас этот форум просматривают: нет зарегистрированных пользователей и гости: 0

скрипт для подписки на сайте