Pitbull's New Year's Revolution 2016 [2017, Pop Show, HDTV, 720p (feed)]


Статистика раздачи
Размер: 21.88 ГБ | Добавлен: 20 окт 2019, 11:44 | Скачали: 0
Сидеров: 1  [0 байт/сек]    Личеров: 0  [0 байт/сек]

Сообщение Гость » 20 окт 2019, 11:44



Жанр: Pop Show
Продолжительность: 01:05:37
Год выпуска: 2017
Качество: HDTV
Разрешение видео/развертка: 720p
Контейнер: TS
Видео кодек: MPEG2
Аудио кодек: MP2
Видео: MPEG2 Video 1280x720 59.94fps 44.6 Mbps
Аудио: MPEG Audio 48000Hz stereo 384kbps
Queen Latifah (host)
Snoop Dogg (host)
Pitbull
Biz Markie
Coolio
Naughty By Nature
Rob Base
Salt-N-Pepa
Tone Loc
Young MC
Код: Выделить всё
General
ID                             : 1 (0x1)
Complete name                  : D:\Pitbull's New Year's Revolution 2017.ts
Format                         : MPEG-TS
File size                      : 21.9 GiB
Duration                       : 1h 5mn
Overall bit rate mode          : Variable
Overall bit rate               : 47.7 Mbps
Video
ID                             : 308 (0x134)
Menu ID                        : 1 (0x1)
Format                         : MPEG Video
Format version                 : Version 2
Format profile                 : Main@High
Format settings, BVOP          : Yes
Format settings, Matrix        : Default
Format settings, GOP           : Variable
Codec ID                       : 2
Duration                       : 1h 5mn
Bit rate                       : 44.6 Mbps
Maximum bit rate               : 45.8 Mbps
Width                          : 1 280 pixels
Height                         : 720 pixels
Display aspect ratio           : 16:9
Frame rate                     : 59.940 fps
Color space                    : YUV
Chroma subsampling             : 4:2:0
Bit depth                      : 8 bits
Scan type                      : Progressive
Compression mode               : Lossy
Bits/(Pixel*Frame)             : 0.808
Time code of first frame       : 00:00:00;00
Time code source               : Group of pictures header
Stream size                    : 20.4 GiB (93%)
Color primaries                : BT.709
Transfer characteristics       : BT.709
Matrix coefficients            : BT.709
Audio #1
ID                             : 256 (0x100)
Menu ID                        : 1 (0x1)
Format                         : MPEG Audio
Format version                 : Version 1
Format profile                 : Layer 2
Codec ID                       : 3
Duration                       : 1h 5mn
Bit rate mode                  : Constant
Bit rate                       : 384 Kbps
Channel(s)                     : 2 channels
Sampling rate                  : 48.0 KHz
Compression mode               : Lossy
Delay relative to video        : 4ms
Stream size                    : 180 MiB (1%)
Language                       : English
Audio #2
ID                             : 257 (0x101)
Menu ID                        : 1 (0x1)
Format                         : MPEG Audio
Format version                 : Version 1
Format profile                 : Layer 2
Codec ID                       : 3
Duration                       : 1h 5mn
Bit rate mode                  : Constant
Bit rate                       : 384 Kbps
Channel(s)                     : 2 channels
Sampling rate                  : 48.0 KHz
Compression mode               : Lossy
Delay relative to video        : 4ms
Stream size                    : 180 MiB (1%)
Language                       : English
Правила, инструкции, FAQ!!!
Торрент  Добавлен [20 окт 2019, 11:44] Скачать торрент Магнет ссылка
Скачать торрент
[ Размер 55.16 КБ / Просмотров 0 ]

Статус
Проверен 
 
Размер  21.88 ГБ
Приватный: Нет (DHT включён)
.torrent скачан  0
Как залить торрент? | Как скачать Torrent? | Как смотреть и слушать онлайн?  
Гость
 


Вернуться в Концерты (HD-Video)

Кто сейчас на конференции

Сейчас этот форум просматривают: нет зарегистрированных пользователей и гости: 1

скрипт для подписки на сайте