Nile Rodgers & Chic • Rock in Rio [2019, Disco, Funk, HDTV, 1080i]


Статистика раздачи
Размер: 6.33 ГБ | Добавлен: 20 окт 2019, 11:44 | Скачали: 0
Сидеров: 8  [0 байт/сек]    Личеров: 2  [0 байт/сек]

Сообщение Гость » 20 окт 2019, 11:44


Nile Rodgers & Chic



Жанр: Disco, Funk
Продолжительность: 01:08:29
Год выпуска: October 3, 2019
Качество: HDTV
Разрешение видео/развертка: 1080i
Контейнер: TS
Видео кодек: H.264
Аудио кодек: AC3
Видео: MPEG4 Video (H264) 1920x1080 29.97fps 12.2 Mb/s
Аудио: Dolby AC3 48000Hz 6ch 384kbps
Chic Cheer (Chic cover)
Dance, Dance, Dance (Yowsah, Yowsah, Yowsah) (Chic cover)
Everybody Dance (Chic cover)
I Want Your Love (Chic cover)
I'm Coming Out (Diana Ross cover)
Upside Down (Diana Ross cover)
He's the Greatest Dancer / We Are Family (Sister Sledge cover)
Lost in Music (Sister Sledge cover) (Band Intro)
Notorious (Duran Duran cover)
Get Lucky (Daft Punk cover)
Let's Dance (David Bowie cover)
Encore:
Le Freak (Chic cover)
Good Times (Chic cover)
Код: Выделить всё
General
ID                             : 1 (0x1)
Complete name                  : E:\Rock in Rio 2019\Nile Rodgers & Chic - Rock in Rio 2019.ts
Format                         : MPEG-TS
File size                      : 6.33 GiB
Duration                       : 1 h 8 min
Overall bit rate mode          : Variable
Overall bit rate               : 13.2 Mb/s
Video
ID                             : 1328 (0x530)
Menu ID                        : 1336 (0x538)
Format                         : AVC
Format/Info                    : Advanced Video Codec
Format profile                 : High@L4
Format settings                : CABAC / 4 Ref Frames
Format settings, CABAC         : Yes
Format settings, Reference fra : 4 frames
Codec ID                       : 27
Duration                       : 1 h 8 min
Bit rate                       : 12.2 Mb/s
Width                          : 1 920 pixels
Height                         : 1 080 pixels
Display aspect ratio           : 16:9
Frame rate                     : 29.970 (30000/1001) FPS
Color space                    : YUV
Chroma subsampling             : 4:2:0
Bit depth                      : 8 bits
Scan type                      : MBAFF
Scan type, store method        : Interleaved fields
Scan order                     : Top Field First
Bits/(Pixel*Frame)             : 0.196
Stream size                    : 5.83 GiB (92%)
Audio
ID                             : 1329 (0x531)
Menu ID                        : 1336 (0x538)
Format                         : AC-3
Format/Info                    : Audio Coding 3
Commercial name                : Dolby Digital
Codec ID                       : 129
Duration                       : 1 h 8 min
Bit rate mode                  : Constant
Bit rate                       : 384 kb/s
Channel(s)                     : 6 channels
Channel layout                 : L R C LFE Ls Rs
Sampling rate                  : 48.0 kHz
Frame rate                     : 31.250 FPS (1536 SPF)
Compression mode               : Lossy
Stream size                    : 188 MiB (3%)
Language                       : English
Service kind                   : Complete Main
Правила, инструкции, FAQ!!!
Торрент  Добавлен [20 окт 2019, 11:44] Скачать торрент Магнет ссылка
Скачать торрент
[ Размер 16.28 КБ / Просмотров 0 ]

Статус
Проверен 
 
Размер  6.33 ГБ
Приватный: Нет (DHT включён)
.torrent скачан  0
Как залить торрент? | Как скачать Torrent? | Как смотреть и слушать онлайн?  
Гость
 


Вернуться в Концерты (HD-Video)

Кто сейчас на конференции

Сейчас этот форум просматривают: нет зарегистрированных пользователей и гости: 0

скрипт для подписки на сайте