[SACD-R][OF] Mozart - Requiem KV 626 - (Bachchor Mainz, L'Arpa Festante, Julia Kleiter, Gerhild Romberger, Klaus Mertens, Daniel Sans, Ralf Otto) - 2004 (Classical/Orchestral/Choral/Vocal)


Статистика раздачи
Размер: 2.3 ГБ | Добавлен: 20 окт 2019, 10:28 | Скачали: 3
Сидеров: 18  [0 байт/сек]    Личеров: 5  [0 байт/сек]

Сообщение Гость » 20 окт 2019, 10:28

Mozart - Requiem KV 626
Bachchor Mainz, L'Arpa Festante, Ralf Otto
Julia Kleiter, Gerhild Romberger
Klaus Mertens, Daniel Sans,

Формат записи/Источник записи: [SACD-R][OF]
Наличие водяных знаков: Нет
Год издания/переиздания диска: 2006
Жанр: Classical/Orchestral/Choral/Vocal
Издатель (лейбл): New Classical Adventure
Продолжительность: 00:50:22
Наличие сканов в содержимом раздачи: Только обложка альбома
Треклист:
01. Requiem aeternam
02. Kyrie eleison
03. Dies irae
04. Tuba mirum
05. Rex tremendae
06. Recordare
07. Confutatis
08. Lacrimosa. Amen
09. Domine Jesu Christe
10. Hostias
11. Sanctus
12. Benedictus
13. Agnus Dei
14. Lux aeterna. Cum sanctis tuis
Bachchor Mainz, choir
Julia Kleiter, soprano
Gerhild Romberger, alt
Klaus Mertens, bass
Daniel Sans, tenor
Barockorchester L'Arpa Festante
Ralf Otto, conductor
Контейнер: ISO (*.iso)
Тип рипа: image
Разрядность: 64(2,8 MHz/1 Bit)
Формат: DST64
Количество каналов: 5.0, 2.0
Доп. информация: New Classical Adventure ‎– 60159-215
Engineer – Stephan Schellmann
Producer [Production] – Klaus Feldmann
Recording Date - August 8, 2005 - August 10, 2005
Recording at Basilika St. Johannes der Täufer, Geisenheim-Johannisberg
Источник (релизер): собственный рип от ehondik
https://www.amazon.de/Requiem-Erg%C3%A4nzte-Fassung-Bachchor-Mainz/dp/B000CS4JKW
https://www.discogs.com/W-A-Mozart-Requiem/release/8827786
Код: Выделить всё
foobar2000 1.3.13 / Замер динамического диапазона (DR) 1.1.1
Дата отчёта:  2019-09-22 21:33:01
--------------------------------------------------------------------------------
Анализ:   ? / ?
--------------------------------------------------------------------------------
DR         Пики         RMS           Продолжительность трека
--------------------------------------------------------------------------------
DR13      -6.96 дБ   -29.73 дБ      5:01 01-Requiem aeternam (REQUIEM KV 626)
DR12      -6.85 дБ   -28.14 дБ      2:25 02-Kyrie eleison (REQUIEM KV 626)
DR12      -6.92 дБ   -26.42 дБ      1:44 03-Dies irae (REQUIEM KV 626)
DR14     -12.25 дБ   -37.04 дБ      3:25 04-Tuba mirum (REQUIEM KV 626)
DR13      -7.02 дБ   -29.44 дБ      1:53 05-Rex tremendae (REQUIEM KV 626)
DR15     -10.41 дБ   -36.16 дБ      5:52 06-Recordare (REQUIEM KV 626)
DR13      -8.17 дБ   -34.05 дБ      2:16 07-Confutatis (REQUIEM KV 626)
DR13      -7.04 дБ   -29.79 дБ      4:37 08-Lacrimosa. Amen (REQUIEM KV 626)
DR13      -7.29 дБ   -30.32 дБ      3:18 09-Domine Jesu Christe (REQUIEM KV 626)
DR13      -7.28 дБ   -30.65 дБ      3:38 10-Hostias (REQUIEM KV 626)
DR12      -7.94 дБ   -26.90 дБ      2:12 11-Sanctus (REQUIEM KV 626)
DR14      -9.20 дБ   -32.65 дБ      5:07 12-Benedictus (REQUIEM KV 626)
DR13      -9.04 дБ   -32.98 дБ      3:16 13-Agnus Dei (REQUIEM KV 626)
DR13      -6.29 дБ   -29.03 дБ      5:38 14-Lux aeterna. Cum sanctis tuis (REQUIEM KV 626)
--------------------------------------------------------------------------------
Количество треков: 14
Реальные значения DR: DR13
Частота:   2822400 Гц / Частота PCM: 88200 Гц
Каналов:   5
Разрядность:   24
Битрейт:   14112 кбит/с
Кодек:   DST64
================================================================================
--------------------------------------------------------------------------------
Анализ:   ? / ?
--------------------------------------------------------------------------------
DR         Пики         RMS           Продолжительность трека
--------------------------------------------------------------------------------
DR13      -6.96 дБ   -26.28 дБ      5:01 01-Requiem aeternam (REQUIEM KV 626)
DR13      -6.85 дБ   -24.79 дБ      2:25 02-Kyrie eleison (REQUIEM KV 626)
DR13      -6.92 дБ   -23.12 дБ      1:44 03-Dies irae (REQUIEM KV 626)
DR14     -12.25 дБ   -33.44 дБ      3:25 04-Tuba mirum (REQUIEM KV 626)
DR14      -7.02 дБ   -26.19 дБ      1:53 05-Rex tremendae (REQUIEM KV 626)
DR15     -10.41 дБ   -32.62 дБ      5:52 06-Recordare (REQUIEM KV 626)
DR14      -8.17 дБ   -30.73 дБ      2:16 07-Confutatis (REQUIEM KV 626)
DR13      -7.04 дБ   -26.48 дБ      4:37 08-Lacrimosa. Amen (REQUIEM KV 626)
DR14      -7.29 дБ   -26.72 дБ      3:18 09-Domine Jesu Christe (REQUIEM KV 626)
DR13      -7.28 дБ   -27.18 дБ      3:38 10-Hostias (REQUIEM KV 626)
DR12      -7.94 дБ   -23.71 дБ      2:12 11-Sanctus (REQUIEM KV 626)
DR13      -9.20 дБ   -29.29 дБ      5:07 12-Benedictus (REQUIEM KV 626)
DR13      -9.04 дБ   -29.70 дБ      3:16 13-Agnus Dei (REQUIEM KV 626)
DR13      -6.29 дБ   -25.64 дБ      5:38 14-Lux aeterna. Cum sanctis tuis (REQUIEM KV 626)
--------------------------------------------------------------------------------
Количество треков: 14
Реальные значения DR: DR13
Частота:   2822400 Гц / Частота PCM: 88200 Гц
Каналов:   2
Разрядность:   24
Битрейт:   5645 кбит/с
Кодек:   DST64
================================================================================
AllMusic Review by Blair Sanderson
The majority of performances of Wolfgang Amadeus Mozart's Requiem in D minor, K. 626, follow the completion by Franz Xaver Süssmayr in the Breitkopf und Härtel edition by Johannes Brahms, which has become the closest thing to an officially sanctioned version. Yet it has long been known that Süssmayr's orchestration was thick and heavy-handed, that his attempts at fugal composition were mediocre, and that his choices in fleshing out the unfinished manuscript were compromises to get Mozart's music into a performable state. Several experts have tried their hands at repairing the work, among them Franz Beyer, Richard Maunder, H.C. Robbins Landon, and Duncan Druce, but the entirely reconstructed edition by Robert D. Levin appears to have gained some traction with early music ensembles, with no fewer than three recordings. Ralf Otto and the Mainz Bach Choir present the stripped-down score with great clarity and simplicity, so anyone acquainted with Süssmayr's murky completion can tell exactly what Levin cut out and replaced with more idiomatic and transparent orchestration, and in critical passages, different music altogether. Levin is quite conservative in letting Mozart's vocal parts and basso continuo carry the musical flow, and he adds few decorations to the rather spare textures, so much of what is heard is unmistakably authentic. What Levin does add is based on Mozart's practice in other works of the time, so he preserves as much as possible the correct style and avoids Süssmayr's wooden cadences and banal counterpoint. The reconstructed Amen fugue at the conclusion of the Lacrimosa and the reworked Sanctus, Osanna, Agnus Dei, and Lux Aeterna feature the biggest changes, and while they may require a few hearings to accept as valid options, they are so well integrated in this performance that they almost seem inevitable and unremarkable. The singing of the soloists and choir is pure in tone and light in texture, so every word of the Latin text is perfectly audible, albeit with a German pronunciation of long e that will be startling to anyone expecting proper Vatican diction. The original instruments of the Munich-based L'arpa festante are polished and discreet, so it seems that this rendition of the Requiem is not played up for novelty's sake, but delivered with sincerity and commitment. The quality of NCA's SACD surround-sound is outstanding, so audiophiles may want to try out this recording simply for its gorgeous sonorities and resonant acoustics. Highly recommended.
Спасибо ehondik за предоставленный рип.
Правила, инструкции, FAQ!!!
Торрент  Добавлен [20 окт 2019, 10:28] Скачать торрент Магнет ссылка
Скачать торрент
[ Размер 92.6 КБ / Просмотров 7 ]

Статус
Проверен 
 
Размер  2.3 ГБ
Приватный: Нет (DHT включён)
.torrent скачан  3
Как залить торрент? | Как скачать Torrent? | Как смотреть и слушать онлайн?  
Гость
 


Вернуться в Классика и классика в современной обработке (многоканальная музыка)

Кто сейчас на конференции

Сейчас этот форум просматривают: нет зарегистрированных пользователей и гости: 0

скрипт для подписки на сайте