(Melodic Rock) [CD] Fortune - Collection (1985-2019) [2CD], FLAC (image+.cue), lossless


Статистика раздачи
Размер: 847.28 МБ | Добавлен: 14 июн 2019, 01:24 | Скачали: 3
Сидеров: 18  [0 байт/сек]    Личеров: 4  [0 байт/сек]

Сообщение Гость » 14 июн 2019, 01:24

Fortune - Collection (1985-2019)
Жанр: Melodic Rock, AOR
Страна: США
Аудио кодек: FLAC (image+.cue)
Битрейт аудио: lossless
Рипы: Собственные
Наличие сканов: да

Альбомы:
Fortune – Fortune
Год выхода альбома: 1985
Год выпуска диска: 2004
Производитель диска: США
Продолжительность: 54:16
Треклист:
01. Thrill of It All (04:13)
02. Smoke from a Gun (04:11)
03. Stacy (04:05)
04. Bad Blood (03:21)
05. Dearborn Station (04:49)
06. Lonely Hunter (04:28)
07. Deep in the Heart of the Night (04:16)
08. Stormy Love (03:49)
09. Out on the Streets (03:40)
10. 98° in the Shade (04:26)
11. Home Free (04:20)
12. Breakin' Down the Door (Live) (04:57)
13. Heart of Stone (Live) (03:42)
Доп. информация:
Лейбл: GYPSY ROCK RECORDS
Каталожный номер: GRR325
Матрица: CDV/CA 04-4376 CDR0409337
Состав:
L. A. Greene – lead vocals, guitar
Richard Fortune
– guitars, vocals
Bobby Birch – bass, vocals, saxophone
Roger Scott Craig – keyboards, vocals
Mick Fortune – drums
Код: Выделить всё
Exact Audio Copy V1.1 from 23. June 2015
EAC extraction logfile from 21. July 2018, 18:41
Fortune / Fortune [GRR325]
Used drive  : TSSTcorpDVD+-RW SU-208GB   Adapter: 1  ID: 0
Read mode               : Secure
Utilize accurate stream : Yes
Defeat audio cache      : Yes
Make use of C2 pointers : No
Read offset correction                      : 6
Overread into Lead-In and Lead-Out          : No
Fill up missing offset samples with silence : Yes
Delete leading and trailing silent blocks   : No
Null samples used in CRC calculations       : Yes
Used interface                              : Native Win32 interface for Win NT & 2000
Used output format : Internal WAV Routines
Sample format      : 44.100 Hz; 16 Bit; Stereo
TOC of the extracted CD
     Track |   Start  |  Length  | Start sector | End sector
    ---------------------------------------------------------
        1  |  0:00.00 |  4:13.16 |         0    |    18990
        2  |  4:13.16 |  4:11.30 |     18991    |    37845
        3  |  8:24.46 |  4:04.44 |     37846    |    56189
        4  | 12:29.15 |  3:21.07 |     56190    |    71271
        5  | 15:50.22 |  4:48.46 |     71272    |    92917
        6  | 20:38.68 |  4:27.62 |     92918    |   113004
        7  | 25:06.55 |  4:16.17 |    113005    |   132221
        8  | 29:22.72 |  3:48.48 |    132222    |   149369
        9  | 33:11.45 |  3:40.29 |    149370    |   165898
       10  | 36:51.74 |  4:25.57 |    165899    |   185830
       11  | 41:17.56 |  4:19.59 |    185831    |   205314
       12  | 45:37.40 |  4:57.02 |    205315    |   227591
       13  | 50:34.42 |  3:41.61 |    227592    |   244227
Range status and errors
Selected range
     Filename D:\Fortune - Fortune [GRR325].wav
     Peak level 98.8 %
     Extraction speed 4.1 X
     Range quality 100.0 %
     Test CRC 85ACF304
     Copy CRC 85ACF304
     Copy OK
No errors occurred
AccurateRip summary
Track  1  accurately ripped (confidence 3)  [0963C1B6]  (AR v2)
Track  2  accurately ripped (confidence 3)  [1E1B5E5F]  (AR v2)
Track  3  accurately ripped (confidence 3)  [AF0D9E2B]  (AR v2)
Track  4  accurately ripped (confidence 3)  [BC636D27]  (AR v2)
Track  5  accurately ripped (confidence 3)  [41C69884]  (AR v2)
Track  6  accurately ripped (confidence 3)  [ED94D96F]  (AR v2)
Track  7  accurately ripped (confidence 3)  [88902CF4]  (AR v2)
Track  8  accurately ripped (confidence 3)  [AA609093]  (AR v2)
Track  9  accurately ripped (confidence 3)  [CEA5E220]  (AR v2)
Track 10  accurately ripped (confidence 3)  [C5D37850]  (AR v2)
Track 11  accurately ripped (confidence 3)  [504E9A76]  (AR v2)
Track 12  accurately ripped (confidence 3)  [85762AB5]  (AR v2)
Track 13  accurately ripped (confidence 3)  [3974458A]  (AR v2)
All tracks accurately ripped
End of status report
---- CUETools DB Plugin V2.1.6
[CTDB TOCID: zDRzKg9CkXy9ZRszbR7_wzkqs0o-] found
Submit result: zDRzKg9CkXy9ZRszbR7_wzkqs0o- has been confirmed
Track | CTDB Status
  1   | (12/12) Accurately ripped
  2   | (12/12) Accurately ripped
  3   | (12/12) Accurately ripped
  4   | (12/12) Accurately ripped
  5   | (12/12) Accurately ripped
  6   | (12/12) Accurately ripped
  7   | (12/12) Accurately ripped
  8   | (12/12) Accurately ripped
  9   | (12/12) Accurately ripped
 10   | (12/12) Accurately ripped
 11   | (12/12) Accurately ripped
 12   | (12/12) Accurately ripped
 13   | (12/12) Accurately ripped
==== Log checksum 87F1BCFA9B7A32023D381671140C09C0D3164022BE096B05F40DBA9A67A7383E ====
Код: Выделить всё
REM GENRE Rock
REM DATE 1985
REM DISCID B20CB80D
REM COMMENT "ExactAudioCopy v1.1"
PERFORMER "Fortune"
TITLE "Fortune [GRR325]"
FILE "Fortune - Fortune [GRR325].flac" WAVE
  TRACK 01 AUDIO
    TITLE "Thrill of It All"
    PERFORMER "Fortune"
    INDEX 01 00:00:00
  TRACK 02 AUDIO
    TITLE "Smoke from a Gun"
    PERFORMER "Fortune"
    INDEX 01 04:13:16
  TRACK 03 AUDIO
    TITLE "Stacy"
    PERFORMER "Fortune"
    INDEX 01 08:24:46
  TRACK 04 AUDIO
    TITLE "Bad Blood"
    PERFORMER "Fortune"
    INDEX 01 12:29:15
  TRACK 05 AUDIO
    TITLE "Dearborn Station"
    PERFORMER "Fortune"
    INDEX 01 15:50:22
  TRACK 06 AUDIO
    TITLE "Lonely Hunter"
    PERFORMER "Fortune"
    INDEX 01 20:38:68
  TRACK 07 AUDIO
    TITLE "Deep in the Heart of the Night"
    PERFORMER "Fortune"
    INDEX 01 25:06:55
  TRACK 08 AUDIO
    TITLE "Stormy Love"
    PERFORMER "Fortune"
    INDEX 01 29:22:72
  TRACK 09 AUDIO
    TITLE "Out on the Streets"
    PERFORMER "Fortune"
    INDEX 01 33:11:45
  TRACK 10 AUDIO
    TITLE "98° in the Shade"
    PERFORMER "Fortune"
    INDEX 01 36:51:74
  TRACK 11 AUDIO
    TITLE "Home Free"
    PERFORMER "Fortune"
    INDEX 01 41:17:56
  TRACK 12 AUDIO
    TITLE "Breakin' Down the Door (Live)"
    PERFORMER "Fortune"
    INDEX 01 45:37:40
  TRACK 13 AUDIO
    TITLE "Heart of Stone (Live)"
    PERFORMER "Fortune"
    INDEX 01 50:34:42
Код: Выделить всё
foobar2000 1.3.16 / Dynamic Range Meter 1.1.1
log date: 2019-05-03 21:35:03
--------------------------------------------------------------------------------
Analyzed: Fortune / Fortune [GRR325]
--------------------------------------------------------------------------------
DR         Peak         RMS     Duration Track
--------------------------------------------------------------------------------
DR8       -0.10 dB    -9.77 dB      4:13 01-Thrill of It All
DR9       -0.10 dB   -10.43 dB      4:11 02-Smoke from a Gun
DR9       -0.10 dB   -10.05 dB      4:05 03-Stacy
DR8       -0.10 dB    -9.21 dB      3:21 04-Bad Blood
DR8       -0.10 dB   -10.40 dB      4:49 05-Dearborn Station
DR8       -0.10 dB    -9.77 dB      4:28 06-Lonely Hunter
DR8       -0.10 dB    -9.96 dB      4:16 07-Deep in the Heart of the Night
DR9       -0.10 dB   -11.29 dB      3:49 08-Stormy Love
DR9       -0.10 dB   -10.64 dB      3:40 09-Out on the Streets
DR8       -0.10 dB   -10.61 dB      4:26 10-98° in the Shade
DR9       -0.10 dB   -10.06 dB      4:20 11-Home Free
DR7       -0.10 dB    -8.40 dB      4:57 12-Breakin' Down the Door (Live)
DR8       -0.10 dB    -9.14 dB      3:42 13-Heart of Stone (Live)
--------------------------------------------------------------------------------
Number of tracks:  13
Official DR value: DR8
Samplerate:        44100 Hz
Channels:          2
Bits per sample:   16
Bitrate:           978 kbps
Codec:             FLAC
================================================================================
#777Fortune – II
Год выхода альбома: 2019
Год выпуска диска: 2019
Производитель диска: Италия
Продолжительность: 43:35
Треклист:
01. Don't Say You Love Me (04:11)
02. Shelter of the Night (04:43)
03. Freedom Road (05:00)
04. A Little Drop of Poison (for Amy W.) (04:28)
05. What a Fool I've Been (04:13)
06. Overload (04:58)
07. Heart of Stone (03:41)
08. The Night (04:02)
09. New Orleans (03:58)
10. All the Right Moves (04:21)
Доп. информация:
Лейбл: FRONTIERS RECORDS
Каталожный номер: FR CD 947
Матрица: || FRCD947 56629 ||
Состав:
L. A. Greene – lead vocals & guitar
Richard Fortune
– lead guitar & vocals, additional keys (9)
Ricky Rat – bass & vocals
Mark Nilan – keyboards
Mick Fortune – drums & vocals
+
Roger Scott Craig – keyboards & vocals (2, 4, 8, 10)
Bobby Birch – bass (9)
David DeLeon – bass (8, 10)
Marc Greene – additional keys (7)
Код: Выделить всё
Exact Audio Copy V1.1 from 23. June 2015
EAC extraction logfile from 3. May 2019, 18:24
Fortune / II [FR CD 947]
Used drive  : TSSTcorpDVD+-RW SU-208GB   Adapter: 1  ID: 0
Read mode               : Secure
Utilize accurate stream : Yes
Defeat audio cache      : Yes
Make use of C2 pointers : No
Read offset correction                      : 6
Overread into Lead-In and Lead-Out          : No
Fill up missing offset samples with silence : Yes
Delete leading and trailing silent blocks   : No
Null samples used in CRC calculations       : Yes
Used interface                              : Native Win32 interface for Win NT & 2000
Used output format : Internal WAV Routines
Sample format      : 44.100 Hz; 16 Bit; Stereo
TOC of the extracted CD
     Track |   Start  |  Length  | Start sector | End sector
    ---------------------------------------------------------
        1  |  0:00.00 |  4:10.50 |         0    |    18799
        2  |  4:10.50 |  4:43.07 |     18800    |    40031
        3  |  8:53.57 |  4:59.69 |     40032    |    62525
        4  | 13:53.51 |  4:27.74 |     62526    |    82624
        5  | 18:21.50 |  4:13.13 |     82625    |   101612
        6  | 22:34.63 |  4:57.44 |    101613    |   123931
        7  | 27:32.32 |  3:41.04 |    123932    |   140510
        8  | 31:13.36 |  4:02.34 |    140511    |   158694
        9  | 35:15.70 |  3:57.66 |    158695    |   176535
       10  | 39:13.61 |  4:21.10 |    176536    |   196120
Range status and errors
Selected range
     Filename D:\Fortune - II [FR CD 947].wav
     Peak level 99.0 %
     Extraction speed 3.9 X
     Range quality 100.0 %
     Test CRC 6A22EBAB
     Copy CRC 6A22EBAB
     Copy OK
No errors occurred
AccurateRip summary
Track  1  not present in database
Track  2  not present in database
Track  3  not present in database
Track  4  not present in database
Track  5  not present in database
Track  6  not present in database
Track  7  not present in database
Track  8  not present in database
Track  9  not present in database
Track 10  not present in database
None of the tracks are present in the AccurateRip database
End of status report
---- CUETools DB Plugin V2.1.6
[CTDB TOCID: ytDFSjvTttPGExsmUIs6Soq52j8-] found
Submit result: ytDFSjvTttPGExsmUIs6Soq52j8- has been confirmed
Track | CTDB Status
  1   | (5/5) Accurately ripped
  2   | (5/5) Accurately ripped
  3   | (5/5) Accurately ripped
  4   | (5/5) Accurately ripped
  5   | (5/5) Accurately ripped
  6   | (5/5) Accurately ripped
  7   | (5/5) Accurately ripped
  8   | (5/5) Accurately ripped
  9   | (5/5) Accurately ripped
 10   | (5/5) Accurately ripped
==== Log checksum 0E3BF5AB89E96CB92984FBB9F6AFFEF5FD01488FF5780FFCF9691A25F42DF8A7 ====
Код: Выделить всё
REM GENRE Rock
REM DATE 2019
REM DISCID 7B0A360A
REM COMMENT "ExactAudioCopy v1.1"
PERFORMER "Fortune"
TITLE "II [FR CD 947]"
FILE "Fortune - II [FR CD 947].flac" WAVE
  TRACK 01 AUDIO
    TITLE "Don't Say You Love Me"
    PERFORMER "Fortune"
    INDEX 01 00:00:00
  TRACK 02 AUDIO
    TITLE "Shelter of the Night"
    PERFORMER "Fortune"
    INDEX 01 04:10:50
  TRACK 03 AUDIO
    TITLE "Freedom Road"
    PERFORMER "Fortune"
    INDEX 01 08:53:57
  TRACK 04 AUDIO
    TITLE "A Little Drop of Poison (for Amy W.)"
    PERFORMER "Fortune"
    INDEX 01 13:53:51
  TRACK 05 AUDIO
    TITLE "What a Fool I've Been"
    PERFORMER "Fortune"
    INDEX 01 18:21:50
  TRACK 06 AUDIO
    TITLE "Overload"
    PERFORMER "Fortune"
    INDEX 01 22:34:63
  TRACK 07 AUDIO
    TITLE "Heart of Stone"
    PERFORMER "Fortune"
    INDEX 01 27:32:32
  TRACK 08 AUDIO
    TITLE "The Night"
    PERFORMER "Fortune"
    INDEX 01 31:13:36
  TRACK 09 AUDIO
    TITLE "New Orleans"
    PERFORMER "Fortune"
    INDEX 01 35:15:70
  TRACK 10 AUDIO
    TITLE "All the Right Moves"
    PERFORMER "Fortune"
    INDEX 01 39:13:61
Код: Выделить всё
foobar2000 1.3.16 / Dynamic Range Meter 1.1.1
log date: 2019-05-03 21:42:26
--------------------------------------------------------------------------------
Analyzed: Fortune / II [FR CD 947]
--------------------------------------------------------------------------------
DR         Peak         RMS     Duration Track
--------------------------------------------------------------------------------
DR6       -0.09 dB    -7.59 dB      4:11 01-Don't Say You Love Me
DR7       -0.09 dB    -8.71 dB      4:43 02-Shelter of the Night
DR7       -0.09 dB    -8.25 dB      5:00 03-Freedom Road
DR7       -0.09 dB    -9.20 dB      4:28 04-A Little Drop of Poison (for Amy W.)
DR7       -0.09 dB    -8.20 dB      4:13 05-What a Fool I've Been
DR7       -0.09 dB    -7.97 dB      4:58 06-Overload
DR7       -0.09 dB    -9.04 dB      3:41 07-Heart of Stone
DR7       -0.09 dB    -7.63 dB      4:02 08-The Night
DR7       -0.09 dB    -8.10 dB      3:58 09-New Orleans
DR6       -0.09 dB    -7.22 dB      4:21 10-All the Right Moves
--------------------------------------------------------------------------------
Number of tracks:  10
Official DR value: DR7
Samplerate:        44100 Hz
Channels:          2
Bits per sample:   16
Bitrate:           1044 kbps
Codec:             FLAC
================================================================================
Правила, инструкции, FAQ!!!
Торрент  Добавлен [14 июн 2019, 01:24] Скачать торрент Магнет ссылка
Скачать торрент
[ Размер 18.91 КБ / Просмотров 9 ]

Статус
Проверен 
 
Размер  847.28 МБ
Приватный: Нет (DHT включён)
.torrent скачан  3
Как залить торрент? | Как скачать Torrent? | Как смотреть и слушать онлайн?  
Гость
 


Вернуться в AOR (Melodic Hard Rock, Arena rock)

Кто сейчас на конференции

Сейчас этот форум просматривают: нет зарегистрированных пользователей и гости: 0

скрипт для подписки на сайте