Квартирник НТВ у Маргулиса. Леонид Агутин 2019.08.17 [2019, Pop, WEBRip, 1080p]


Статистика раздачи
Размер: 3.3 ГБ | Добавлен: 20 окт 2019, 11:57 | Скачали: 1
Сидеров: 8  [0 байт/сек]    Личеров: 2  [0 байт/сек]

Сообщение Гость » 20 окт 2019, 11:57

Квартирник НТВ у Маргулиса. Леонид Агутин 2019.08.17
Жанр: Pop
Продолжительность: 01:16:00
Год выпуска: 2019
Описание: Душевный рок- поп концерт, квартирник, который происходит в гостях у Маргулиса. В теплой и душевной атмосфере друзья Маргулиса исполнят свои самые известные и любимые песни и заодно расскажут историю создания песен. Найк Борзов, В. Сюткин, С. Чиграков, А.Ф. Скляр и многие-многие другие.
Ведущий: Евгений Маргулис
Треклист:
01. Я тебя не вижу
02. Летний дождь
03. Я буду всегда с тобой
04. Хоп Хей ЛаЛа Лэй
05. Время последних романтиков
06. Пароход
07. Песня о далёкой родине
08. Самба
09. Какая-то фигня
10. Если ты когда-нибудь меня простишь
Качество: WEBRip
Разрешение видео/развертка: 1080p
Контейнер: MKV
Видео кодек: H.264
Аудио кодек: AC3
Видео: H264; 1920x1080 (16:9); 25.000 fps; ~6 000 kb/s
Аудио: AC3, 2 channels, 48000Hz, 192 Кбит/сек
Код: Выделить всё
General
Unique ID                      : 47250494498574906247114180557430166451 (0x238C1D3DCBECA7BA4BC8153EDF9D93B3)
Complete name                  : D:\Квартирник НТВ\Квартирник НТВ у Маргулиса. Леонид Агутин 2019.08.17.mkv
Format                         : Matroska
Format version                 : Version 4
File size                      : 3.30 GiB
Duration                       : 1 h 16 min
Overall bit rate mode          : Constant
Overall bit rate               : 6 191 kb/s
Encoded date                   : UTC 2019-10-18 00:19:24
Writing application            : mkvmerge v30.1.0 ('Forever And More') 64-bit
Writing library                : libebml v1.3.6 + libmatroska v1.4.9
Video
ID                             : 1
Format                         : AVC
Format/Info                    : Advanced Video Codec
Format profile                 : High@L4.1
Format settings                : 2 Ref Frames
Format settings, CABAC         : No
Format settings, Reference fra : 2 frames
Codec ID                       : V_MPEG4/ISO/AVC
Duration                       : 1 h 16 min
Bit rate mode                  : Constant
Bit rate                       : 6 000 kb/s
Width                          : 1 920 pixels
Height                         : 1 080 pixels
Display aspect ratio           : 16:9
Frame rate mode                : Constant
Frame rate                     : 25.000 FPS
Standard                       : PAL
Color space                    : YUV
Chroma subsampling             : 4:2:0
Bit depth                      : 8 bits
Scan type                      : Progressive
Bits/(Pixel*Frame)             : 0.116
Stream size                    : 3.19 GiB (97%)
Language                       : English
Default                        : Yes
Forced                         : No
Color range                    : Limited
Color primaries                : BT.709
Transfer characteristics       : BT.709
Matrix coefficients            : BT.709
Audio
ID                             : 2
Format                         : AC-3
Format/Info                    : Audio Coding 3
Commercial name                : Dolby Digital
Codec ID                       : A_AC3
Duration                       : 1 h 16 min
Bit rate mode                  : Constant
Bit rate                       : 192 kb/s
Channel(s)                     : 2 channels
Channel layout                 : L R
Sampling rate                  : 48.0 kHz
Frame rate                     : 31.250 FPS (1536 SPF)
Bit depth                      : 16 bits
Compression mode               : Lossy
Stream size                    : 105 MiB (3%)
Service kind                   : Complete Main
Default                        : Yes
Forced                         : No

Правила, инструкции, FAQ!!!
Торрент  Добавлен [20 окт 2019, 11:57] Скачать торрент Магнет ссылка
Скачать торрент
[ Размер 17.12 КБ / Просмотров 8 ]

Статус
Проверен 
 
Размер  3.3 ГБ
Приватный: Нет (DHT включён)
.torrent скачан  1
Как залить торрент? | Как скачать Torrent? | Как смотреть и слушать онлайн?  
Гость
 


Вернуться в Концерты (HD-Video)

Кто сейчас на конференции

Сейчас этот форум просматривают: нет зарегистрированных пользователей и гости: 0

скрипт для подписки на сайте