Крадущийся тигр, затаившийся дракон: Меч судьбы / Crouching Tiger, Hidden Dragon: Sword of Destiny (2016) BDRip-AVC от SuperMin | L


Статистика раздачи
Размер: 1.52 ГБ | Добавлен: 16 сен 2017, 20:39 | Скачали: 337
Сидеров: 80  [0 байт/сек]    Личеров: 12  [0 байт/сек]

Сообщение Гость » 16 сен 2017, 20:39

Название: Крадущийся тигр, затаившийся дракон: Меч судьбы
Оригинальное название: Crouching Tiger, Hidden Dragon: Sword of Destiny
Год выхода: 2016
Жанр: фэнтези, боевик, драма, приключения
Режиссер: Юэнь Воо-пин
В ролях: Донни Йен, Мишель Йео, Гарри Шам мл., Джейсон Скотт Ли, Евгения Йуан, Жужу Чан, Крис Пэнг, Дэррил Квон, Роджер Йуан и др.

О фильме:
Мы видим, что после гибели Ли Мубая прошли годы. Его таинственный, мистический меч всё также не дает всем покоя. Любимая Ли Мубая женщина-воин снова оказывается в эпицентре событий, связанных с зеленым мечом. Перед нами история сражений и алчности, потерянной и новой любви, и все того же великого и мощного меча…



Страна: Китай, США
Студия: China Film Group, Netflix, Pegasus Taihe Entertainment
Продолжительность: 01:42:30
Перевод: Любительский (многоголосый закадровый) Parovoz Production


Кодек: H.264
Качество: BDRip-AVC от SuperMin
Видео: 1056x440 (2.40:1), 1923 kbps, 23.976 fps
Звук: Русский (AC-3, 2ch, 192 kbps)

x264 [info]: frame I:1291 Avg QP:16.96 size: 50280
x264 [info]: frame P:32088 Avg QP:19.13 size: 20314
x264 [info]: frame B:114086 Avg QP:21.12 size: 6679
x264 [info]: consecutive B-frames: 2.3% 3.3% 9.2% 17.9% 13.3% 39.8% 8.4% 1.7% 4.1%
encoded 147465 frames, 12.79 fps, 1923.42 kb/s

General
Unique ID : 188733846883633098390166518488885068805 (0x8DFCD114C684F5A9BFF23447FF1F8405)
Complete name : E:ФИЛЬМЫКрадущийся тигр, затаившийся дракон. Меч судьбы.2016.x264.BDRip-AVC.mkv
Format : Matroska
Format version : Version 4 / Version 2
File size : 1.52 GiB
Duration : 1 h 42 min
Overall bit rate : 2 117 kb/s
Movie name : Крадущийся тигр, затаившийся дракон: Меч судьбы / Crouching Tiger, Hidden Dragon: Sword of Destiny (2016) - #LORDKILL#
Encoded date : UTC 2017-09-12 13:09:35
Writing application : mkvmerge v9.5.0 ('Quiet Fire') 64bit
Writing library : libebml v1.3.4 + libmatroska v1.4.5

Video
ID : 1
Format : AVC
Format/Info : Advanced Video Codec
Format profile : High@L4.1
Format settings, CABAC : Yes
Format settings, ReFrames : 13 frames
Codec ID : V_MPEG4/ISO/AVC
Duration : 1 h 42 min
Bit rate : 1 923 kb/s
Width : 1 056 pixels
Height : 440 pixels
Display aspect ratio : 2.40:1
Frame rate mode : Constant
Frame rate : 23.976 (24000/1001) FPS
Color space : YUV
Chroma subsampling : 4:2:0
Bit depth : 8 bits
Scan type : Progressive
Bits/(Pixel*Frame) : 0.173
Stream size : 1.38 GiB (91%)
Writing library : x264 core 148 r2638 7599210
Encoding settings : cabac=1 / ref=13 / deblock=1:-3:-3 / analyse=0x3:0x113 / me=umh / subme=11 / psy=1 / psy_rd=1.00:0.10 / mixed_ref=1 / me_range=32 / chroma_me=1 / trellis=2 / 8x8dct=1 / cqm=0 / deadzone=21,11 / fast_pskip=0 / chroma_qp_offset=-3 / threads=12 / lookahead_threads=2 / sliced_threads=0 / nr=0 / decimate=1 / interlaced=0 / bluray_compat=0 / constrained_intra=0 / bframes=8 / b_pyramid=2 / b_adapt=2 / b_bias=0 / direct=3 / weightb=1 / open_gop=0 / weightp=2 / keyint=240 / keyint_min=23 / scenecut=40 / intra_refresh=0 / rc_lookahead=60 / rc=crf / mbtree=0 / crf=19.5 / qcomp=0.60 / qpmin=0 / qpmax=69 / qpstep=4 / vbv_maxrate=62500 / vbv_bufsize=78125 / crf_max=0.0 / nal_hrd=none / filler=0 / ip_ratio=1.40 / pb_ratio=1.30 / aq=1:1.00
Default : Yes
Forced : No

Audio
ID : 2
Format : AC-3
Format/Info : Audio Coding 3
Mode extension : CM (complete main)
Format settings, Endianness : Big
Codec ID : A_AC3
Duration : 1 h 42 min
Bit rate mode : Constant
Bit rate : 192 kb/s
Channel(s) : 2 channels
Channel positions : Front: L R
Sampling rate : 48.0 kHz
Frame rate : 31.250 FPS (1536 spf)
Bit depth : 16 bits
Compression mode : Lossy
Stream size : 141 MiB (9%)
Title : MVO - Parovoz Production
Language : Russian
Default : No
Forced : No

Menu
00:00:00.000 : :Глава 01
00:07:52.513 : :Глава 02
00:17:19.288 : :Глава 03
00:23:26.196 : :Глава 04
00:35:37.552 : :Глава 05
00:45:17.840 : :Глава 06
00:50:26.148 : :Глава 07
01:09:58.903 : :Глава 08
01:18:32.499 : :Глава 09
01:26:14.252 : :Глава 10
01:32:28.876 : :Глава 11

Правила, инструкции, FAQ!!!
Торрент  Добавлен [16 сен 2017, 20:39] Скачать торрент Магнет ссылка
Скачать торрент
[ Размер 16.37 КБ / Просмотров 21 ]

Статус
Проверен 
 
Размер  1.52 ГБ
Приватный: Нет (DHT включён)
.torrent скачан  337
Как залить торрент? | Как скачать Torrent? | Как смотреть и слушать онлайн?  
Гость
 


Вернуться в Фантастика, Фэнтези

Кто сейчас на конференции

Сейчас этот форум просматривают: нет зарегистрированных пользователей и гости: 0

скрипт для подписки на сайте