[SACD-R][OF] Bruckner - Symphony No. 8 - Simone Young, Philharmoniker Hamburg - 2016 (Classical)


Статистика раздачи
Размер: 3.88 ГБ | Добавлен: 31 дек 2018, 00:10 | Скачали: 4
Сидеров: 16  [0 байт/сек]    Личеров: 7  [0 байт/сек]

Сообщение Гость » 31 дек 2018, 00:10

Simone Young, Philharmoniker Hamburg / Bruckner - Symphony No. 8
Формат записи/Источник записи: [SACD-R][OF]
Наличие водяных знаков: Нет
Год издания/переиздания диска: 2016
Жанр: Classical
Издатель (лейбл): Oehms
Продолжительность: 01:22:37
Наличие сканов в содержимом раздачи: Только обложка альбома
Треклист:
Bruckner: Symphony No. 8 in C Minor, WAB 108 (original 1887 version, ed. L. Nowak):
I. Allegro moderato 16:05 Album Only
II. Scherzo: Allegro moderato - Trio: Allegro moderato 14:37
III. Adagio Feierlich langsam, doch nicht schleppend 27:44
IV. Finale
Simone Young
Philharmoniker Hamburg
Контейнер: ISO (*.iso)
Тип рипа: image
Разрядность: 64(2,8 MHz/1 Bit)
Формат: DST64
Количество каналов: 5.1 + 2.0
Код: Выделить всё
foobar2000 1.3.17 / Dynamic Range Meter 1.1.1
log date: 2018-09-27 20:51:50
--------------------------------------------------------------------------------
Analyzed: Simone Young, Hamburg Philharmonic / Bruckner, Symphony No. 8
--------------------------------------------------------------------------------
DR         Peak         RMS     Duration Track
--------------------------------------------------------------------------------
DR15      -5.32 dB   -27.26 dB     27:45 01-Adagio. Feierlich langsam, doch nicht schleppend
DR13      -6.18 dB   -24.68 dB     16:06 01-Allegro moderato
DR12      -6.08 dB   -24.00 dB     24:10 02-Finale. Feierlich, nicht schnell
DR13      -6.22 dB   -25.78 dB     14:37 02-Scherzo. Allegro moderato - Trio. Allegro moderato
--------------------------------------------------------------------------------
Number of tracks:  4
Official DR value: DR13
Samplerate:        2822400 Hz / PCM Samplerate: 88200 Hz
Channels:          5
Bits per sample:   1
Bitrate:           14112 kbps
Codec:             DST64
================================================================================
--------------------------------------------------------------------------------
Analyzed: Simone Young, Hamburg Philharmonic / Bruckner, Symphony No. 8
--------------------------------------------------------------------------------
DR         Peak         RMS     Duration Track
--------------------------------------------------------------------------------
DR13      -6.17 dB   -25.24 dB     27:45 01-Adagio. Feierlich langsam, doch nicht schleppend
DR11      -6.18 dB   -22.50 dB     16:06 01-Allegro moderato
DR12      -6.15 dB   -23.90 dB     24:10 02-Finale. Feierlich, nicht schnell
DR13      -6.32 dB   -24.28 dB     14:37 02-Scherzo. Allegro moderato - Trio. Allegro moderato
--------------------------------------------------------------------------------
Number of tracks:  4
Official DR value: DR12
Samplerate:        2822400 Hz / PCM Samplerate: 88200 Hz
Channels:          2
Bits per sample:   1
Bitrate:           5645 kbps
Codec:             DST64
================================================================================
Источник (релизер): собственный рип https://www.amazon.com/Bruckner-Symphony-No-ANTON-BRUCKNER/dp/B002ED6VS6
Оркестр: Philharmoniker Hamburg
Композитор: Anton Bruckner
Дирижер: Simone Young
Правила, инструкции, FAQ!!!
Торрент  Добавлен [31 дек 2018, 00:10] Скачать торрент Магнет ссылка
Скачать торрент
[ Размер 39.55 КБ / Просмотров 26 ]

Статус
Проверен 
 
Размер  3.88 ГБ
Приватный: Нет (DHT включён)
.torrent скачан  4
Как залить торрент? | Как скачать Torrent? | Как смотреть и слушать онлайн?  
Гость
 


Вернуться в Классика и классика в современной обработке (многоканальная музыка)

Кто сейчас на конференции

Сейчас этот форум просматривают: нет зарегистрированных пользователей и гости: 0

скрипт для подписки на сайте