(Blues Rock) [CD] Chris Rea - The Road to Hell & Back - 2006, FLAC (image+.cue), lossless


Статистика раздачи
Размер: 716.27 МБ | Добавлен: 21 ноя 2019, 15:16 | Скачали: 0
Сидеров: 35  [0 байт/сек]    Личеров: 12  [0 байт/сек]

Сообщение Гость » 21 ноя 2019, 15:16

Chris Rea / The Road to Hell & Back
Жанр: Blues Rock
Носитель: CD
Страна-производитель диска (релиза): UK
Год издания: 2006
Издатель (лейбл): Polydor, Jazze Blue
Номер по каталогу: LC00309; 1704477 (1704478; 1704479)
Страна исполнителя (группы): UK
Аудиокодек: FLAC (*.flac)
Тип рипа: image+.cue
Битрейт аудио: lossless
Продолжительность: 01:50:42
Источник: собственный рип
Наличие сканов в содержимом раздачи: да
Треклист:
01. Jazzee Blue [0:03:44.58]
02. That's the Way It Goes [0:05:03.03]
03. Where the Blues Come From [0:05:38.30]
04. Josephine [0:05:08.37]
05. Work Gang [0:04:38.02]
06. Head out on the Highway [0:04:43.40]
07. Easy Rider [0:05:04.69]
08. 'Til the Morning [0:07:47.31]
09. Stony Road [0:06:02.57]
10. KKK Blues [0:04:57.25]
11. Julia [0:03:55.70]
12. Stainsby Girls [0:08:22.32]
Код: Выделить всё
Exact Audio Copy V1.3 from 2. September 2016
Отчёт EAC об извлечении, выполненном 18. марта 2019, 11:28
Chris Rea / Road to Hell & Back [Bonus Disc]
Дисковод: PLEXTOR DVDR   PX-755A   Adapter: 1  ID: 0
Режим чтения                 : Достоверность
Использование точного потока : Да
Отключение кэша аудио        : Да
Использование указателей C2  : Нет
Коррекция смещения при чтении                     : 30
Способность читать области Lead-in и Lead-out     : Нет
Заполнение пропущенных сэмплов тишиной            : Да
Удаление блоков с тишиной в начале и конце        : Нет
При вычислениях CRC использовались нулевые сэмплы : Да
Интерфейс                                         : Встроенный Win32-интерфейс для Win NT/2000
Выходной формат          : Пользовательский кодировщик
Выбранный битрейт        : 1024 kBit/s
Качество                 : Высокий
Добавление ID3-тега      : Нет
Утилита сжатия           : C:\Program Files (x86)\Exact Audio Copy\FLAC\FLAC.EXE
Дополнительные параметры : -6 -V -T "ARTIST=%artist%" -T "TITLE=%title%" -T "ALBUM=%albumtitle%" -T "DATE=%year%" -T "TRACKNUMBER=%tracknr%" -T "GENRE=%genre%" -T "COMMENT=%comment%" -T "BAND=%albuminterpret%" -T "ALBUMARTIST=%albuminterpret%" -T "COMPOSER=%composer%" %haslyrics%--tag-from-file=LYRICS="%lyricsfile%"%haslyrics% -T "DISCNUMBER=%cdnumber%" -T "TOTALDISCS=%totalcds%" -T "TOTALTRACKS=%numtracks%" %hascover%--picture="%coverfile%"%hascover% %source% -o %dest%
TOC извлечённого CD
     Трек |   Старт  | Длительность | Начальный сектор | Конечный сектор
    ---------------------------------------------------------------------
       1  |  0:00.00 |    3:44.58   |           0      |      16857
       2  |  3:44.58 |    5:03.03   |       16858      |      39585
       3  |  8:47.61 |    5:38.30   |       39586      |      64965
       4  | 14:26.16 |    5:08.37   |       64966      |      88102
       5  | 19:34.53 |    4:38.02   |       88103      |     108954
       6  | 24:12.55 |    4:43.40   |      108955      |     130219
       7  | 28:56.20 |    5:04.69   |      130220      |     153088
       8  | 34:01.14 |    7:47.31   |      153089      |     188144
       9  | 41:48.45 |    6:02.57   |      188145      |     215351
      10  | 47:51.27 |    4:57.25   |      215352      |     237651
      11  | 52:48.52 |    3:55.70   |      237652      |     255346
      12  | 56:44.47 |    8:22.32   |      255347      |     293028
Характеристики диапазона извлечения и сообщения об ошибках
Выбранный диапазон
     Имя файла E:\РАЗДАЧА\Chris Rea - The Road to Hell & Back (2CD)\Chris Rea - Road to Hell & Back [Bonus Disc].wav
     Пиковый уровень 99.0 %
     Скорость извлечения 6.8 X
     Качество диапазона 100.0 %
     CRC теста 1EA813A5
     CRC копии 1EA813A5
     Копирование... OK
Ошибок не произошло
AccurateRip: сводка
Трек  1  : извлечено точно (доверие 47)  [25AA7412]  (AR v2)
Трек  2  : извлечено точно (доверие 47)  [D918C5A7]  (AR v2)
Трек  3  : извлечено точно (доверие 47)  [E5F1FDBE]  (AR v2)
Трек  4  : извлечено точно (доверие 47)  [E6C72D16]  (AR v2)
Трек  5  : извлечено точно (доверие 47)  [657939AF]  (AR v2)
Трек  6  : извлечено точно (доверие 47)  [C8E19FAF]  (AR v2)
Трек  7  : извлечено точно (доверие 47)  [AFDF6D2A]  (AR v2)
Трек  8  : извлечено точно (доверие 47)  [D1B483A6]  (AR v2)
Трек  9  : извлечено точно (доверие 47)  [B3B6AA8E]  (AR v2)
Трек 10  : извлечено точно (доверие 47)  [4F4E40FA]  (AR v2)
Трек 11  : извлечено точно (доверие 47)  [1E6BBA24]  (AR v2)
Трек 12  : извлечено точно (доверие 47)  [21C11BCF]  (AR v2)
Все треки извлечены точно
Конец отчёта
==== Контрольная сумма отчёта F47556554D47FD1B1F05BFC7583A145A739E8E10346BEAA9577B0AF3A0A618B9 ====
Треклист
01. Somewhere Between Highway 61 & 48 [0:08:17.57]
02. I Can Hear Your Heart Beat [0:10:47.31]
03. The Road to Hell [0:10:08.63]
04. On the Beach [0:05:42.72]
05. Let's Dance [0:06:42.74]
06. Fool (If You Think It's Over) [0:03:56.02]
[pre]Exact Audio Copy V1.3 from 2. September 2016
Отчёт EAC об извлечении, выполненном 18. марта 2019, 11:49
Chris Rea / Road to Hell & Back [Bonus Disc] (Disc 2)
Дисковод: PLEXTOR DVDR PX-755A Adapter: 1 ID: 0
Режим чтения : Достоверность
Использование точного потока : Да
Отключение кэша аудио : Да
Использование указателей C2 : Нет
Коррекция смещения при чтении : 30
Способность читать области Lead-in и Lead-out : Нет
Заполнение пропущенных сэмплов тишиной : Да
Удаление блоков с тишиной в начале и конце : Нет
При вычислениях CRC использовались нулевые сэмплы : Да
Интерфейс : Встроенный Win32-интерфейс для Win NT/2000
Выходной формат : Пользовательский кодировщик
Выбранный битрейт : 1024 kBit/s
Качество : Высокий
Добавление ID3-тега : Нет
Утилита сжатия : C:\Program Files (x86)\Exact Audio Copy\FLAC\FLAC.EXE
Дополнительные параметры : -6 -V -T "ARTIST=%artist%" -T "TITLE=%title%" -T "ALBUM=%albumtitle%" -T "DATE=%year%" -T "TRACKNUMBER=%tracknr%" -T "GENRE=%genre%" -T "COMMENT=%comment%" -T "BAND=%albuminterpret%" -T "ALBUMARTIST=%albuminterpret%" -T "COMPOSER=%composer%" %haslyrics%--tag-from-file=LYRICS="%lyricsfile%"%haslyrics% -T "DISCNUMBER=%cdnumber%" -T "TOTALDISCS=%totalcds%" -T "TOTALTRACKS=%numtracks%" %hascover%--picture="%coverfile%"%hascover% %source% -o %dest%
TOC извлечённого CD
Трек | Старт | Длительность | Начальный сектор | Конечный сектор
---------------------------------------------------------------------
1 | 0:00.00 | 8:17.57 | 0 | 37331
2 | 8:17.57 | 10:47.31 | 37332 | 85887
3 | 19:05.13 | 10:08.63 | 85888 | 131550
4 | 29:14.01 | 5:42.72 | 131551 | 157272
5 | 34:56.73 | 6:42.74 | 157273 | 187496
6 | 41:39.72 | 3:56.02 | 187497 | 205198
Характеристики диапазона извлечения и сообщения об ошибках
Выбранный диапазон
Имя файла E:\РАЗДАЧА\Chris Rea - The Road to Hell & Back (2CD)\CD Two\Chris Rea - Road to Hell & Back [Bonus Disc] (Disc 2).wav
Пиковый уровень 98.8 %
Скорость извлечения 6.2 X
Качество диапазона 100.0 %
CRC теста 9E15DF32
CRC копии 9E15DF32
Копирование... OK
Ошибок не произошло
AccurateRip: сводка
Трек 1 : извлечено точно (доверие 45) [B38EB7D5] (AR v2)
Трек 2 : извлечено точно (доверие 45) [E0E2501E] (AR v2)
Трек 3 : извлечено точно (доверие 46) [39B81216] (AR v2)
Трек 4 : извлечено точно (доверие 46) [E13DA5A7] (AR v2)
Трек 5 : извлечено точно (доверие 46) [C3442D73] (AR v2)
Трек 6 : извлечено точно (доверие 46) [C8412907] (AR v2)
Все треки извлечены точно
Конец отчёта
==== Контрольная сумма отчёта BEDD83B2D49CD7068F1487D97AB86CF22D30FF1E3225E62A4F1B154D26B852E2 ====
Правила, инструкции, FAQ!!!
Торрент  Добавлен [21 ноя 2019, 15:16] Скачать торрент Магнет ссылка
Скачать торрент
[ Размер 16.54 КБ / Просмотров 17 ]

Статус
Проверен 
 
Размер  716.27 МБ
Приватный: Нет (DHT включён)
.torrent скачан  0
Как залить торрент? | Как скачать Torrent? | Как смотреть и слушать онлайн?  
Гость
 


Вернуться в Blues-rock

Кто сейчас на конференции

Сейчас этот форум просматривают: нет зарегистрированных пользователей и гости: 0

скрипт для подписки на сайте