Апач / Apache (1954) DVDRip [H.264]


Статистика раздачи
Размер: 1.37 ГБ | Добавлен: 11 окт 2017, 23:13 | Скачали: 2
Сидеров: 2  [0 байт/сек]    Личеров: 1  [0 байт/сек]

Сообщение Гость » 11 окт 2017, 23:13

Апач / Apache (1954) DVDRip [H.264]

Производство: США / Hecht-Lancaster Productions
Жанр: Вестерн

Режиссер: Роберт Олдрич
Продюсер: Харольд Хект, Берт Ланкастер
Актеры: Берт Ланкастер, Джин Питерс, Джон МакИнтайр, Чарльз Бронсон, Джон Денер, Пол Гилфойл, Йен МакДональд, Уолтер Сэнд, Моррис Анкрум, Монте Блу

Описание:
По пути во Флориду из товарного вагона, куда солдаты Соединенных Штатов загрузили пленных индейцев, сумев освободиться от оков, бежит молодой апач по имени Массаи. Красивый мускулистый воин, после долгих испытаний, наконец, достигнув родных степей, вновь берется за оружие, чтобы отомстить своим бледнолицым врагам.


Возраст: 6+ (зрителям, достигшим 6 лет)

Релиз от: Охрана (NNMCLUB)
Продолжительность: 01:23:51
Качество видео: DVDRip sample
Перевод: Многоголосый закадровый (SomeWax)
Субтитры: Русские, английские

Видео: AVC/H.264, 720x544, ~1957 Kbps
Аудио 1: Русский, AC3, 2 ch, 192 Kbps, 48.0 kHz
Аудио 2: Английский, AC3, 2 ch, 192 Kbps, 48.0 kHz
Код: Выделить всё
General
Unique ID                                : 217587096479256649496578809366135484983 (0xA3B1C01E49E23F26A7EF8AB0128CB237)
Complete name                            : F:\Downloads\Апач. 1954. NNMCLUB.mkv
Format                                   : Matroska
Format version                           : Version 4 / Version 2
File size                                : 1.37 GiB
Duration                                 : 1h 23mn
Overall bit rate                         : 2 344 Kbps
Encoded date                             : UTC 2017-09-23 06:59:16
Writing application                      : mkvmerge v7.0.0 ('Where We Going') 32bit built on Jun  9 2014 15:08:34
Writing library                          : libebml v1.3.0 + libmatroska v1.4.1
DURATION                                 : 01:21:57.436000000
NUMBER_OF_FRAMES                         : 606
NUMBER_OF_BYTES                          : 24367
_STATISTICS_WRITING_APP                  : mkvmerge v7.0.0 ('Where We Going') 32bit built on Jun  9 2014 15:08:34
_STATISTICS_WRITING_DATE_UTC             : 2017-09-23 06:59:16
_STATISTICS_TAGS                         : BPS DURATION NUMBER_OF_FRAMES NUMBER_OF_BYTES

Video
ID                                       : 1
Format                                   : AVC
Format/Info                              : Advanced Video Codec
Format profile                           :
Format settings, CABAC                   : Yes
Format settings, ReFrames                : 12 frames
Codec ID                                 : V_MPEG4/ISO/AVC
Duration                                 : 1h 23mn
Bit rate                                 : 1 957 Kbps
Width                                    : 720 pixels
Height                                   : 544 pixels
Display aspect ratio                     : 4:3
Frame rate mode                          : Constant
Frame rate                               : 25.000 fps
Color space                              : YUV
Chroma subsampling                       : 4:2:0
Bit depth                                : 8 bits
Scan type                                : Progressive
Bits/(Pixel*Frame)                       : 0.200
Stream size                              : 1.12 GiB (82%)
Title                                    : Apache
Writing library                          : x264 core 125 r2208 d9d2288
Encoding settings                        : cabac=1 / ref=12 / deblock=1:-1:-1 / analyse=0x3:0x133 / me=umh / subme=10 / psy=1 / psy_rd=1.00:0.10 / mixed_ref=1 / me_range=32 / chroma_me=1 / trellis=2 / 8x8dct=1 / cqm=0 / deadzone=21,11 / fast_pskip=0 / chroma_qp_offset=-3 / threads=6 / lookahead_threads=1 / sliced_threads=0 / nr=0 / decimate=0 / interlaced=0 / bluray_compat=0 / constrained_intra=0 / bframes=7 / b_pyramid=2 / b_adapt=2 / b_bias=0 / direct=3 / weightb=1 / open_gop=0 / weightp=2 / keyint=250 / keyint_min=25 / scenecut=40 / intra_refresh=0 / rc_lookahead=60 / rc=2pass / mbtree=1 / bitrate=1957 / ratetol=1.0 / qcomp=0.60 / qpmin=0 / qpmax=69 / qpstep=4 / cplxblur=20.0 / qblur=0.5 / ip_ratio=1.40 / aq=1:1.00
Language                                 : English
Default                                  : Yes
Forced                                   : No

Audio #1
ID                                       : 2
Format                                   : AC-3
Format/Info                              : Audio Coding 3
Mode extension                           : CM (complete main)
Format settings, Endianness              : Big
Codec ID                                 : A_AC3
Duration                                 : 1h 23mn
Bit rate mode                            : Constant
Bit rate                                 : 192 Kbps
Channel(s)                               : 2 channels
Channel positions                        : Front: L R
Sampling rate                            : 48.0 KHz
Bit depth                                : 16 bits
Compression mode                         : Lossy
Stream size                              : 115 MiB (8%)
Title                                    : Многоголосый закадровый
Language                                 : Russian
Default                                  : Yes
Forced                                   : No

Audio #2
ID                                       : 3
Format                                   : AC-3
Format/Info                              : Audio Coding 3
Mode extension                           : CM (complete main)
Format settings, Endianness              : Big
Codec ID                                 : A_AC3
Duration                                 : 1h 23mn
Bit rate mode                            : Constant
Bit rate                                 : 192 Kbps
Channel(s)                               : 2 channels
Channel positions                        : Front: L R
Sampling rate                            : 48.0 KHz
Bit depth                                : 16 bits
Compression mode                         : Lossy
Stream size                              : 115 MiB (8%)
Title                                    : Оригинал
Language                                 : English
Default                                  : No
Forced                                   : No

Text #1
ID                                       : 4
Format                                   : UTF-8
Codec ID                                 : S_TEXT/UTF8
Codec ID/Info                            : UTF-8 Plain Text
Title                                    : SRT
Language                                 : Russian
Default                                  : No
Forced                                   : No

Text #2
ID                                       : 5
Format                                   : UTF-8
Codec ID                                 : S_TEXT/UTF8
Codec ID/Info                            : UTF-8 Plain Text
Title                                    : SRT
Language                                 : English
Default                                  : No
Forced                                   : No

Скриншоты:


Правила, инструкции, FAQ!!!
Торрент  Добавлен [11 окт 2017, 23:13] Скачать торрент Магнет ссылка
Скачать торрент
[ Размер 14.47 КБ / Просмотров 35 ]

Статус
Проверен 
 
Размер  1.37 ГБ
Приватный: Нет (DHT включён)
.torrent скачан  2
Как залить торрент? | Как скачать Torrent? | Как смотреть и слушать онлайн?  
Гость
 


Вернуться в Вестерн

Кто сейчас на конференции

Сейчас этот форум просматривают: нет зарегистрированных пользователей и гости: 0

скрипт для подписки на сайте